Skip to content
 

Сливочные проблемы и их решение.

Вот уже столько раз приходилось возвращаться к данному вопросу, что он весьма поднадоел. Вода, как оказалось, вещество подлое - как ни уплотняй, а внутрь все равно попадет. То ли через сальник засасывает при резком остывании, то ли по границе материалов пролезает - не знаю, но с удручающей регулярностью помпы ржавеют и клинят в самый неподходящий момент, порой со спецэффектами.

Так что в поисках решения обратил я взор свой к Поднебесной. В коей выпускаются маленькие насосики для перекачки  практически чего угодно - от бензина до кислот со щелочами. Ибо выполнены полностью герметичными, безо всяких сальников. Более того, вся электрическая часть в них залита компаундом, так что попадать воде просто некуда. Как же они тогда крутятся? - быстро и хорошо :) Обычный бесколлекторный двигатель с электронным управлением, как в компьютерных вентиляторах, не имеет электрического контакта с ротором, и поэтому статор можно полностью герметизировать. Только смутило, что при производительности 550л/час такая малая заявленная мощность - всего 12вт против 50вт у нынешних на базе помпы Газель, кои имеют заявленную производительность 1700л/час, или 28 литров в минуту - почти 2 литра в секунду!. Но ведь газелевская помпа от Bosh (производительность которой вдвое меньше) тоже имеет мощность 15вт, и при этом явно меньший КПД чем бесколлекторник. Значит - "дайте две!".

Небольшое ожидание в 4 месяца - и служебные улитки Почты России наконец-то доставили долгожданную посылку. Сравнительное испытание - откачка 5-литрового ведра на время - заставило сильно удивиться: производительность китайского насоса практически равна производительности газелепомпы. Зато удобство использования несопоставимо - газелепомпу надо нежно поддерживать, погружая в воду заборником, и опускать по мере расхода воды - а китайца можно просто кинуть на дно :) И к тому же китайцев ДВА - а жрут и весят они меньше чем одна казельская.

 

Видео испытаний. Газель
 

Китаец:

 

И небольшая фотосессия:

PS. Да, я в курсе - производительность центробежного насоса сильно зависит от сопротивления на выходе, причем у каждого свой график оной зависимости. Поэтому и выбрано было испытание через один и тот же шланг - в реальном применении будет еще сопротивление мусора вокруг фильтра и поворота слива.

 

UPD. Готовые помпы с установленным фильтром

Также можно почитать:

  1. Переделка маслосистемы (6.7)
  2. Вовремя регулируйте клапана! (5.9)
  3. Новые магнитные пробки в действии. (4.3)

11 комментариев

  1. Сергей Авербург Ростов (Краснодар) пишет:

    Отзыв: Thumb up 0 Thumb down 0

    Инфа конечно интересная! А ссылка для заказа будет???  А то не все способны найти по такой инфе. И у меня еще сомнения насчет ресурса этих насосов... Все параметры лучше ГАЗелевских. А где подвох? Во сколько обошлись насосы?

    • admin admin пишет:

      Отзыв: Thumb up 0 Thumb down 0

      Источник - поиск фразы "brushless pump" на АлиЭкспресс, лучше брать чуть более мощные - когда я брал были только эти. Ресурс газелевских оказался полгода до переборки, вряд ли у китайцев будет хуже :)
      Подвох - не знаю, пробная эксплуатация покажет. На ХХ газельская таки дает заявленный расход, но малейшее сопротивление его режет на корню: лопасти прямые, а скорость низкая. У китайца же расход что на ХХ, что на шлангу почти не меняется - мотор высокооборотный и давление довольно большое.
      Обошлись в $16 за штуку, по сравнению с казельскими почти даром.

  2. Andrey-Tomsk (Томск) пишет:

    Отзыв: Thumb up 0 Thumb down 0

    Алгоритм немного странный. Сначала грузится видео полностью!, потом только начинает показывать, а так как видевы 2 то на это уходит много время) 
    Кнопочку запилить бы, чтоб как у всех, нажал пошла загрузка, а то может не всем надо кино смотреть :)

  3. БО (Набережные Челны) пишет:

    Отзыв: Thumb up 0 Thumb down 0

    Видео не грузиться просмотреть не получается не хромом не фаерфоксом

    • admin admin пишет:

      Отзыв: Thumb up 0 Thumb down 0

      Значит нет нужных кодеков или флешплеер кривой - у меня и в линухе, и в винде все показывается со всех компов. И хромом с файрфоксом, и оперой, и даже ИЕ.
      Вот что про видео рассказывает ffmpeg:

      Input #0, flv, from 'gazel_pump.flv':
      Metadata:
      encoder : Lavf54.63.104
      Duration: 00:00:57.70, start: 0.000000, bitrate: 2165 kb/s
      Stream #0:0: Video: flv1, yuv420p, 720x404, 8000 kb/s, 30 tbr, 1k tbn, 1k tbc
      Stream #0:1: Audio: mp3, 44100 Hz, stereo, s16p, 128 kb/s

Написать отзыв